<svg xmlns="http://www.w3.org/2000/svg"><defs><font id="hermes-dashboard-icons" horiz-adv-x="256"><font-face font-family="hermes-dashboard-icons" units-per-em="256" ascent="256" descent="0"/><glyph glyph-name="active-40" unicode="" horiz-adv-x="256" d="M193.361 154.904l-86.694 15.763v52.192c0 10.627-7.261 20.476-17.75 22.183C75.55 247.215 64 236.958 64 224V106.667H53.333v32H42.667c-11.782 0-21.334-9.551-21.334-21.334V86.45a64 64 0 0 1 14.025-39.981L64 10.667h138.667l16.598 107.888c2.635 17.132-8.849 33.248-25.904 36.35z"/><glyph glyph-name="air-baloon" unicode="" horiz-adv-x="256" d="M149.333 42.667h-42.666C100.768 42.667 96 37.888 96 32V10.667C96 4.779 100.768 0 106.667 0h42.666C155.232 0 160 4.779 160 10.667V32c0 5.888-4.768 10.667-10.667 10.667zm-20.597 213.29c-.075 0-.15.011-.224.011-.17.01-.341.032-.512.032-.16 0-.32-.021-.49-.021-.097 0-.171-.011-.267-.011-46.699-.416-84.576-38.507-84.576-85.301 0-31.99 39.818-94.731 44.362-101.782A10.7 10.7 0 0 1 96 64h64a10.7 10.7 0 0 1 8.97 4.885c4.545 7.051 44.363 69.792 44.363 101.782 0 46.805-37.888 84.896-84.597 85.29z"/><glyph glyph-name="album-2" unicode="" horiz-adv-x="256" d="M245.333 234.667H192V256h-21.333v-21.333h-32V256h-21.334v-21.333h-32V256H64v-21.333H10.667C4.779 234.667 0 229.899 0 224V10.667C0 4.768 4.779 0 10.667 0h234.666C251.221 0 256 4.768 256 10.667V224c0 5.899-4.779 10.667-10.667 10.667zM234.667 21.333H21.333v192H64V192h21.333v21.333h32V192h21.334v21.333h32V192H192v21.333h42.667v-192zM158.379 144.32a10.677 10.677 0 0 1-7.531 4.907c-3.104.458-6.25-.502-8.608-2.582l-96-85.333a10.673 10.673 0 0 1 7.093-18.645h149.334a10.673 10.673 0 0 1 9.056 16.32l-53.344 85.333zM53.333 144c0-8.837 7.164-16 16-16 8.837 0 16 7.163 16 16s-7.163 16-16 16c-8.836 0-16-7.163-16-16z"/><glyph glyph-name="align-center" unicode="" horiz-adv-x="256" d="M245.333 213.333H10.667C4.776 213.333 0 218.11 0 224s4.776 10.667 10.667 10.667h234.666c5.891 0 10.667-4.776 10.667-10.667s-4.776-10.667-10.667-10.667zm-53.333-64H64c-5.89 0-10.667 4.776-10.667 10.667S58.11 170.667 64 170.667h128c5.89 0 10.667-4.776 10.667-10.667S197.89 149.333 192 149.333zm53.333-64H10.667C4.776 85.333 0 90.11 0 96s4.776 10.667 10.667 10.667h234.666C251.224 106.667 256 101.89 256 96s-4.776-10.667-10.667-10.667zm-53.333-64H64c-5.89 0-10.667 4.776-10.667 10.667S58.11 42.667 64 42.667h128c5.89 0 10.667-4.776 10.667-10.667S197.89 21.333 192 21.333z"/><glyph glyph-name="align-left-2" unicode="" horiz-adv-x="256" d="M245.333 213.333H10.667C4.776 213.333 0 218.11 0 224s4.776 10.667 10.667 10.667h234.666c5.891 0 10.667-4.776 10.667-10.667s-4.776-10.667-10.667-10.667zm-106.666-64h-128C4.776 149.333 0 154.11 0 160s4.776 10.667 10.667 10.667h128c5.89 0 10.666-4.776 10.666-10.667s-4.776-10.667-10.666-10.667zm106.666-64H10.667C4.776 85.333 0 90.11 0 96s4.776 10.667 10.667 10.667h234.666C251.224 106.667 256 101.89 256 96s-4.776-10.667-10.667-10.667zm-106.666-64h-128C4.776 21.333 0 26.11 0 32s4.776 10.667 10.667 10.667h128c5.89 0 10.666-4.776 10.666-10.667s-4.776-10.667-10.666-10.667z"/><glyph glyph-name="ambulance" unicode="" horiz-adv-x="256" d="M249.6 126.933l-14.933 7.467v36.267c0 6.4-4.267 10.666-10.667 10.666h-53.333v32c0 6.4-4.267 10.667-10.667 10.667H10.667C4.267 224 0 219.733 0 213.333V74.667C0 68.267 4.267 64 10.667 64H22.4C26.667 45.867 43.733 32 64 32s36.267 13.867 41.6 32h44.8c2.133-18.133 18.133-32 36.267-32s34.133 13.867 36.266 32h22.4c6.4 0 10.667 4.267 10.667 10.667v42.666c0 4.267-2.133 7.467-6.4 9.6zM64 53.333c-11.733 0-21.333 9.6-21.333 21.334C42.667 86.4 52.267 96 64 96s21.333-9.6 21.333-21.333c0-11.734-9.6-21.334-21.333-21.334zm53.333 96H96V128H74.667v21.333H53.333v21.334h21.334V192H96v-21.333h21.333v-21.334zm69.334-96c-8.534 0-16 7.467-16 16s7.466 16 16 16 16-7.466 16-16-7.467-16-16-16zM213.333 144c0-3.2-2.133-5.333-5.333-5.333h-21.333c-3.2 0-5.334 2.133-5.334 5.333v10.667c0 3.2 2.134 5.333 5.334 5.333H208c3.2 0 5.333-2.133 5.333-5.333V144z"/><glyph glyph-name="app" unicode="" horiz-adv-x="256" d="M128 161.067l94.933 42.666-90.666 40.534c-3.2 1.066-6.4 1.066-8.534 0l-90.666-40.534L128 161.067zm10.667-18.134v-128l89.6 39.467c4.266 2.133 6.4 5.333 6.4 9.6v121.6l-96-42.667zm-21.334 0l-96 42.667V64c0-4.267 2.134-8.533 6.4-9.6l89.6-39.467v128z"/><glyph glyph-name="archive-2" unicode="" horiz-adv-x="256" d="M224 170.667H32c-5.888 0-10.667-4.768-10.667-10.667V10.667C21.333 4.768 26.112 0 32 0h192c5.888 0 10.667 4.768 10.667 10.667V160c0 5.899-4.779 10.667-10.667 10.667zM181.333 96c0-5.899-4.778-10.667-10.666-10.667H85.333c-5.888 0-10.666 4.768-10.666 10.667v32H96v-21.333h64V128h21.333V96zM42.667 213.333h170.666V192H42.667v21.333zm32 42.667h106.666v-21.333H74.667V256z"/><glyph glyph-name="atom" unicode="" horiz-adv-x="256" d="M235.797 197.013c-6.186 9.654-21.013 19.488-56.533 11.542-2.71-.608-5.493-1.334-8.31-2.123C162.124 235.605 147.702 256 128 256c-18.197 0-33.205-17.621-42.901-49.664-27.958 7.872-53.856 7.936-64.886-9.323-6.186-9.664-8.928-27.253 13.174-56.17 3.253-4.256 6.965-8.544 10.954-12.843-3.989-4.299-7.701-8.587-10.954-12.853-22.102-28.918-19.36-46.507-13.174-56.171 6.166-9.632 17.504-14.485 33.099-14.485 9.163 0 19.83 1.717 31.755 5.077C93.472 21.653 107.38 0 128 0c19.701 0 34.123 20.395 42.965 49.579 2.816-.79 5.59-1.515 8.31-2.123 20.138-4.512 45.45-5.803 56.522 11.541 10.592 16.534 1.782 40.758-24.384 68.715 22.454 23.957 36.576 50.261 24.384 69.301zm-17.962-11.498c4.704-7.35-6.326-30.507-36.502-57.323-.01 19.755-1.792 39.573-5.29 57.504 9.909 2.827 36.256 8.448 41.792-.181zM74.859 128c22.901 20.288 52.533 38.955 80.746 50.528 5.686-30.87 6.027-68.299 0-101.056C127.413 89.035 97.781 107.702 74.86 128zM128 234.667c6.997 0 15.957-12.907 22.613-35.126-7.392-2.922-14.976-6.378-22.613-10.229-7.328 3.68-14.976 7.125-22.72 10.165 7.637 25.515 17.472 35.19 22.72 35.19zm-89.824-49.152c4.587 7.189 30.155 7.008 66.944-8.992-16.757-10.251-31.616-21.131-45.536-33.6-7.915 8.597-27.584 32.97-21.408 42.592zm-.01-115.03c-6.155 9.622 13.482 33.974 21.418 42.592a285.816 285.816 0 0 1 16.33-13.536c.854-9.674 2.187-19.541 4.075-29.173-25.6-7.328-38.997-4.267-41.824.117zM128 21.333c-8.725 0-22.304 21.782-28.608 61.664 17.11-10.944 34.613-19.978 51.221-26.538C143.957 34.24 134.997 21.333 128 21.333zm89.824 49.152c-5.504-8.661-31.904-2.997-41.781-.192 1.813 9.312 3.114 19.147 4 29.195a285.824 285.824 0 0 1 16.106 13.365c20.96-22.528 24.79-37.514 21.675-42.368zM117.334 128c0-5.891 4.775-10.667 10.666-10.667s10.667 4.776 10.667 10.667-4.776 10.667-10.667 10.667-10.667-4.776-10.667-10.667z"/><glyph glyph-name="badge" unicode="" horiz-adv-x="256" d="M149.333 181.333h-42.666v53.334c0 11.786 9.546 21.333 21.333 21.333 11.787 0 21.333-9.547 21.333-21.333v-53.334zm96 21.334h-74.666V160H85.333v42.667H10.667C4.779 202.667 0 197.888 0 192V10.667C0 4.779 4.779 0 10.667 0h234.666C251.221 0 256 4.779 256 10.667V192c0 5.888-4.779 10.667-10.667 10.667zM85.333 128c11.787 0 21.334-9.547 21.334-21.333 0-11.787-9.547-21.334-21.334-21.334S64 94.88 64 106.667C64 118.453 73.547 128 85.333 128zM42.667 42.667c0 17.674 14.325 32 32 32H96c17.675 0 32-14.326 32-32H42.667zm170.666 10.666h-64v21.334h64V53.333zm0 42.667h-64v21.333h64V96z"/><glyph glyph-name="bag-17" unicode="" horiz-adv-x="256" d="M213.333 256H42.667c-18.134 0-32-13.867-32-32V10.667C10.667 4.267 14.933 0 21.333 0h213.334c6.4 0 10.666 4.267 10.666 10.667V224c0 18.133-13.866 32-32 32zM128 85.333c-35.2 0-64 28.8-64 64 0 6.4 4.267 10.667 10.667 10.667s10.666-4.267 10.666-10.667c0-23.466 19.2-42.666 42.667-42.666s42.667 19.2 42.667 42.666c0 6.4 4.266 10.667 10.666 10.667S192 155.733 192 149.333c0-35.2-28.8-64-64-64zm85.333 128H42.667C36.267 213.333 32 217.6 32 224s4.267 10.667 10.667 10.667h170.666c6.4 0 10.667-4.267 10.667-10.667s-4.267-10.667-10.667-10.667z"/><glyph glyph-name="basket" unicode="" horiz-adv-x="256" d="M245.333 181.333h-36.48l-39.594 69.291c-2.912 5.11-9.43 6.901-14.55 3.968-5.109-2.923-6.89-9.44-3.968-14.55l33.547-58.709H71.712l33.547 58.71c2.922 5.109 1.141 11.626-3.968 14.549-5.11 2.933-11.627 1.141-14.55-3.968l-39.594-69.29h-36.48C4.779 181.333 0 176.564 0 170.666v-21.334c0-5.898 4.779-10.666 10.667-10.666h234.666c5.888 0 10.667 4.768 10.667 10.666v21.334c0 5.898-4.779 10.666-10.667 10.666zm-10.666-64H21.333V10.667C21.333 4.779 26.112 0 32 0h192c5.888 0 10.667 4.779 10.667 10.667v106.666zM96 32H74.667v53.333H96V32zm42.667 0h-21.334v53.333h21.334V32zm42.666 0H160v53.333h21.333V32z"/><glyph glyph-name="bell-55" unicode="" horiz-adv-x="256" d="M202.667 138.667v32c0 41.6-33.067 74.666-74.667 74.666s-74.667-33.066-74.667-74.666v-32c0-35.2-32-43.734-32-64 0-18.134 41.6-32 106.667-32s106.667 13.866 106.667 32c0 20.266-32 28.8-32 64zM128 21.333c-13.867 0-25.6 1.067-37.333 2.134C98.133 9.6 112 0 128 0s30.933 9.6 37.333 23.467C153.6 22.4 141.867 21.333 128 21.333z"/><glyph glyph-name="bold-down" unicode="" horiz-adv-x="256" d="M21.333 160L64 202.667l64-64 64 64L234.667 160 128 53.333z"/><glyph glyph-name="bold-left" unicode="" horiz-adv-x="256" d="M160 234.667L202.667 192l-64-64 64-64L160 21.333 53.333 128z"/><glyph glyph-name="bold-right" unicode="" horiz-adv-x="256" d="M96 234.667L53.333 192l64-64-64-64L96 21.333 202.667 128z"/><glyph glyph-name="bold-up" unicode="" horiz-adv-x="256" d="M234.667 96L192 53.333l-64 64-64-64L21.333 96 128 202.667z"/><glyph glyph-name="bold" unicode="" horiz-adv-x="256" d="M32 10.667V35.95l13.87 4.367a10.667 10.667 0 0 1 7.463 10.174v154.787c0 4.767-3.162 8.955-7.747 10.26L32 219.403v25.93h107.837c55.424 0 70.982-25.283 70.982-57.363 0-30.8-19.768-47.981-39.536-54.46v-.964c36.95-4.223 52.717-25.47 52.717-57.88 0-47.967-36.195-64-87.08-64H32zm87.093 136.13c23.33 0 44.075 5.517 44.075 33.07 0 26.577-16.852 30.14-39.22 30.14h-17.281v-63.21h12.426zm9.395-101.121c27.224 0 45.052 6.48 45.052 34.68 0 26.906-18.145 34.032-40.182 34.032h-26.691V45.676h21.821z"/><glyph glyph-name="book-bookmark" unicode="" horiz-adv-x="256" d="M42.667 32c0 5.888 4.778 10.667 10.666 10.667h160c11.787 0 21.334 9.546 21.334 21.333v160c0 17.675-14.326 32-32 32H128v-85.333L96 192l-32-21.333V256H53.333c-17.674 0-32-14.325-32-32V32c0-17.675 14.326-32 32-32H224c5.888 0 10.667 4.779 10.667 10.667S229.888 21.333 224 21.333H53.333c-5.888 0-10.666 4.779-10.666 10.667z"/><glyph glyph-name="books" unicode="" horiz-adv-x="256" d="M53.333 234.667H10.667C4.779 234.667 0 229.899 0 224V32c0-5.899 4.779-10.667 10.667-10.667h42.666C59.221 21.333 64 26.101 64 32v192c0 5.899-4.779 10.667-10.667 10.667zm85.334 0H96c-5.888 0-10.667-4.768-10.667-10.667V32c0-5.899 4.779-10.667 10.667-10.667h42.667c5.888 0 10.666 4.768 10.666 10.667v192c0 5.899-4.778 10.667-10.666 10.667zM255.7 44.555l-45.184 186.602c-1.386 5.728-7.2 9.28-12.874 7.851l-41.472-10.027a10.648 10.648 0 0 1-6.592-4.81 10.687 10.687 0 0 1-1.27-8.064l45.174-186.614c.661-2.752 2.4-5.12 4.81-6.592a10.725 10.725 0 0 1 5.568-1.568c.843 0 1.686.107 2.507.299l41.472 10.037c5.728 1.398 9.248 7.158 7.861 12.886z"/><glyph glyph-name="box-2" unicode="" horiz-adv-x="256" d="M167.467 202.667H249.6l-60.8 51.2c-2.133 1.066-5.333 2.133-7.467 2.133H147.2l20.267-53.333zm3.2-21.334v-74.666H85.333v74.666H0V10.667C0 4.267 4.267 0 10.667 0h234.666C251.733 0 256 4.267 256 10.667v170.666h-85.333zm-82.134 21.334L108.8 256H74.667c-2.134 0-5.334-1.067-6.4-2.133L6.4 202.667h82.133z"/><glyph glyph-name="briefcase-24" unicode="" horiz-adv-x="256" d="M160 64V42.667H96V64H10.667V10.667C10.667 4.779 15.445 0 21.333 0h213.334c5.888 0 10.666 4.779 10.666 10.667V64H160zm85.333 149.333h-64v32c0 5.888-4.778 10.667-10.666 10.667H85.333c-5.888 0-10.666-4.779-10.666-10.667v-32h-64C4.779 213.333 0 208.555 0 202.667V96c0-5.888 4.779-10.667 10.667-10.667H96v32h64v-32h85.333C251.221 85.333 256 90.112 256 96v106.667c0 5.888-4.779 10.666-10.667 10.666zm-85.333 0H96v21.334h64v-21.334z"/><glyph glyph-name="building" unicode="" horiz-adv-x="256" d="M74.667 149.333H53.333v96A10.657 10.657 0 0 0 64 256h128a10.657 10.657 0 0 0 10.667-10.667v-64h-21.334v53.334H74.667v-85.334zm170.666 21.334h-96A10.657 10.657 0 0 1 138.667 160V21.333h-21.334v96A10.657 10.657 0 0 1 106.667 128h-96A10.657 10.657 0 0 1 0 117.333V10.667A10.657 10.657 0 0 1 10.667 0h234.666A10.657 10.657 0 0 1 256 10.667V160a10.657 10.657 0 0 1-10.667 10.667zM74.667 32h-32v21.333h32V32zm0 42.667h-32V96h32V74.667zM213.333 32h-32v21.333h32V32zm0 42.667h-32V96h32V74.667zm0 42.666h-32v21.334h32v-21.334z"/><glyph glyph-name="bulb-61" unicode="" horiz-adv-x="256" d="M85.333 74.027v-31.36h85.334v31.36C203.296 90.176 224 123.168 224 160c0 52.939-43.072 96-96 96s-96-43.061-96-96c0-36.821 20.704-69.824 53.333-85.973zM74.667 160c0 29.408 23.925 53.333 53.333 53.333h10.667V192H128c-17.643 0-32-14.357-32-32v-10.667H74.667V160zM85.333 21.333V10.667C85.333 4.768 90.112 0 96 0h64c5.888 0 10.667 4.768 10.667 10.667v10.666H85.333z"/><glyph glyph-name="bullet-list-67" unicode="" horiz-adv-x="256" d="M10.667 213.333c0-17.673 14.327-32 32-32 17.673 0 32 14.327 32 32 0 17.673-14.327 32-32 32-17.673 0-32-14.327-32-32zm0-85.333c0-17.673 14.327-32 32-32 17.673 0 32 14.327 32 32 0 17.673-14.327 32-32 32-17.673 0-32-14.327-32-32zm0-85.333c0-17.673 14.327-32 32-32 17.673 0 32 14.327 32 32 0 17.673-14.327 32-32 32-17.673 0-32-14.327-32-32zM96 224h149.333v-21.333H96V224zm0-85.333h149.333v-21.334H96v21.334zm0-85.334h149.333V32H96v21.333z"/><glyph glyph-name="bus-front-12" unicode="" horiz-adv-x="256" d="M42.667 21.333V10.667C42.667 4.779 47.435 0 53.333 0h32C91.232 0 96 4.779 96 10.667v10.666H42.667zm117.333 0V10.667C160 4.779 164.768 0 170.667 0h32c5.898 0 10.666 4.779 10.666 10.667v10.666H160zM0 170.667h21.333v-53.334H0v53.334zm234.667 0H256v-53.334h-21.333v53.334zM192 256H64c-17.643 0-32-14.357-32-32V42.667C32 36.779 36.779 32 42.667 32h170.666C219.221 32 224 36.779 224 42.667V224c0 17.643-14.357 32-32 32zM74.667 64C68.779 64 64 68.779 64 74.667s4.779 10.666 10.667 10.666 10.666-4.778 10.666-10.666C85.333 68.779 80.555 64 74.667 64zm106.666 0c-5.888 0-10.666 4.779-10.666 10.667s4.778 10.666 10.666 10.666S192 80.555 192 74.667C192 68.779 187.221 64 181.333 64zm21.334 53.333H53.333v96h149.334v-96z"/><glyph glyph-name="button-pause" unicode="" horiz-adv-x="256" d="M96 245.333H32a10.657 10.657 0 0 1-10.667-10.666V21.333A10.657 10.657 0 0 1 32 10.667h64a10.657 10.657 0 0 1 10.667 10.666v213.334A10.657 10.657 0 0 1 96 245.333zm128 0h-64a10.657 10.657 0 0 1-10.667-10.666V21.333A10.657 10.657 0 0 1 160 10.667h64a10.657 10.657 0 0 1 10.667 10.666v213.334A10.657 10.657 0 0 1 224 245.333z"/><glyph glyph-name="button-play" unicode="" horiz-adv-x="256" d="M219.253 136.875l-160 106.666c-3.274 2.176-7.488 2.39-10.944.534a10.66 10.66 0 0 1-5.642-9.408V21.333c0-3.936 2.165-7.552 5.632-9.408a10.675 10.675 0 0 1 5.034-1.258c2.07 0 4.139.608 5.92 1.792l160 106.666C222.22 121.11 224 124.437 224 128s-1.781 6.89-4.747 8.875z"/><glyph glyph-name="button-power" unicode="" horiz-adv-x="256" d="M186.635 218.987c-5.099 2.944-11.627 1.205-14.571-3.904-2.944-5.099-1.195-11.627 3.904-14.571C205.589 183.382 224 151.509 224 117.333c0-52.938-43.061-96-96-96s-96 43.062-96 96c0 34.166 18.4 66.027 48.01 83.168 5.1 2.944 6.849 9.472 3.883 14.571-2.933 5.11-9.461 6.87-14.57 3.883-36.182-20.928-58.656-59.872-58.656-101.622C10.667 52.64 63.307 0 128 0s117.333 52.64 117.333 117.333c0 41.771-22.485 80.726-58.698 101.654zM128 160a10.657 10.657 0 0 1 10.667 10.667v74.666c0 5.899-4.768 10.667-10.667 10.667s-10.667-4.768-10.667-10.667v-74.666A10.657 10.657 0 0 1 128 160z"/><glyph glyph-name="calendar-grid-58" unicode="" horiz-adv-x="256" d="M245.333 234.667h-42.666V256h-21.334v-21.333h-42.666V256h-21.334v-21.333H74.667V256H53.333v-21.333H10.667C4.779 234.667 0 229.888 0 224V10.667C0 4.779 4.779 0 10.667 0h234.666C251.221 0 256 4.779 256 10.667V224c0 5.888-4.779 10.667-10.667 10.667zM234.667 21.333H21.333v149.334h213.334V21.333zm-192 117.334h42.666v-32H42.667v32zm64 0h42.666v-32h-42.666v32zm-64-53.334h42.666v-32H42.667v32zm64 0h42.666v-32h-42.666v32zm64 53.334h42.666v-32h-42.666v32z"/><glyph glyph-name="camera-compact" unicode="" horiz-adv-x="256" d="M32 245.333h64V224H32v21.333zm213.333-32H10.667C4.768 213.333 0 208.555 0 202.667V21.333c0-5.888 4.768-10.666 10.667-10.666h234.666c5.899 0 10.667 4.778 10.667 10.666v181.334c0 5.888-4.768 10.666-10.667 10.666zM64 138.667c-5.888 0-10.667 4.778-10.667 10.666C53.333 155.221 58.112 160 64 160s10.667-4.779 10.667-10.667S69.888 138.667 64 138.667zm96-85.334c-29.45 0-53.333 23.883-53.333 53.334S130.549 160 160 160s53.333-23.883 53.333-53.333S189.451 53.333 160 53.333z"/><glyph glyph-name="caps-small" unicode="" horiz-adv-x="256" d="M42.667 21.333v17.111l28.045 1.653c3.306.241 3.955 1.183 3.955 4.719v168.517H23.34c-2.594 0-3.306-.235-3.776-2.594L15.798 192H0v42.667h170.667V192h-15.798l-3.767 18.739c-.47 2.359-1.182 2.594-3.777 2.594H96V44.816c0-3.306.408-4.248 3.944-4.478L128 38.444v-17.11H42.667zm117.333 0v17.111l17.379 1.653c3.306.241 3.954 1.183 3.954 4.719v93.85h-29.992c-2.594 0-3.306-.235-3.776-2.594l-3.767-18.739H128V160h128v-42.667h-15.798l-3.766 18.739c-.471 2.36-1.183 2.595-3.777 2.595h-29.992V44.816c0-3.306.407-4.248 3.944-4.478L224 38.444v-17.11h-64z"/><glyph glyph-name="cart" unicode="" horiz-adv-x="256" d="M245.333 85.333H32l16 21.334h154.667c4.597 0 8.661 2.933 10.112 7.296l32 96a10.623 10.623 0 0 1-1.462 9.61 10.66 10.66 0 0 1-8.65 4.427H47.083l-28.875 28.875c-4.17 4.17-10.912 4.17-15.083 0s-4.17-10.912 0-15.083L32 208.917v-88.021L2.133 81.066A10.655 10.655 0 0 1 1.12 69.9 10.678 10.678 0 0 1 10.667 64h234.666C251.232 64 256 68.779 256 74.667s-4.768 10.666-10.667 10.666zm-224-64C21.333 9.551 30.885 0 42.667 0S64 9.551 64 21.333c0 11.782-9.551 21.334-21.333 21.334-11.782 0-21.334-9.552-21.334-21.334zm170.667 0C192 9.551 201.551 0 213.333 0c11.782 0 21.334 9.551 21.334 21.333 0 11.782-9.552 21.334-21.334 21.334S192 33.115 192 21.333z"/><glyph glyph-name="chart-bar-32" unicode="" horiz-adv-x="256" d="M149.333 234.667h-42.666C100.779 234.667 96 229.888 96 224V32c0-5.888 4.779-10.667 10.667-10.667h42.666C155.221 21.333 160 26.112 160 32v192c0 5.888-4.779 10.667-10.667 10.667zm-96-117.334H10.667C4.779 117.333 0 112.555 0 106.667V32c0-5.888 4.779-10.667 10.667-10.667h42.666C59.221 21.333 64 26.112 64 32v74.667c0 5.888-4.779 10.666-10.667 10.666zm192 53.334h-42.666c-5.888 0-10.667-4.779-10.667-10.667V32c0-5.888 4.779-10.667 10.667-10.667h42.666C251.221 21.333 256 26.112 256 32v128c0 5.888-4.779 10.667-10.667 10.667z"/><glyph glyph-name="chart-pie-35" unicode="" horiz-adv-x="256" d="M138.667 138.667h116.789c-5.152 62.069-54.72 111.637-116.79 116.789v-116.79zm-6.251-21.334L45.429 30.347C67.744 11.456 96.544 0 128 0c66.976 0 122.005 51.744 127.456 117.333h-123.04zm-15.083 15.083v123.04C51.744 250.006 0 194.976 0 128c0-31.456 11.456-60.256 30.347-82.57l86.986 86.986z"/><glyph glyph-name="chat-round" unicode="" horiz-adv-x="256" d="M128 245.333c-70.4 0-128-48-128-106.666S57.6 32 128 32c10.667 0 21.333 1.067 32 3.2l59.733-23.467c1.067 0 2.134-1.066 4.267-1.066 2.133 0 4.267 1.066 6.4 2.133 3.2 2.133 4.267 6.4 4.267 9.6l-5.334 50.133C246.4 91.733 256 114.133 256 137.6c0 59.733-57.6 107.733-128 107.733z"/><glyph glyph-name="check-bold" unicode="" horiz-adv-x="256" d="M21.333 138.667L42.667 160 96 128l117.333 85.333L234.667 192 96 53.333z"/><glyph glyph-name="circle-08" unicode="" horiz-adv-x="256" d="M128 256C57.419 256 0 198.581 0 128S57.419 0 128 0s128 57.419 128 128-57.419 128-128 128zM85.333 149.333C85.333 172.896 105.003 192 128 192s42.667-19.104 42.667-42.667v-10.666C170.667 115.104 150.997 96 128 96s-42.667 19.104-42.667 42.667v10.666zm42.667-128c-25.952 0-49.76 9.344-68.277 24.811 8.949 16.885 26.496 28.523 46.944 28.523h42.666c20.448 0 37.995-11.638 46.944-28.523-18.517-15.467-42.325-24.81-68.277-24.81z"/><glyph glyph-name="cloud-download-95" unicode="" horiz-adv-x="256" d="M211.968 148.523C204.683 191.52 167.104 224 122.667 224c-45.91 0-84.022-34.09-89.803-78.89C13.184 136.95 0 117.727 0 96c0-29.408 23.925-53.333 53.333-53.333h149.334C232.075 42.667 256 66.592 256 96c0 26.24-19.04 48.107-44.032 52.523zM128 74.667L74.667 128h42.666v42.667h21.334V128h42.666L128 74.667z"/><glyph glyph-name="cloud-upload-96" unicode="" horiz-adv-x="256" d="M211.968 148.523C204.683 191.52 167.104 224 122.667 224c-45.91 0-84.011-34.09-89.803-78.89C13.174 136.95 0 117.727 0 96c0-29.408 23.925-53.333 53.333-53.333h149.334C232.075 42.667 256 66.592 256 96c0 26.24-19.04 48.117-44.032 52.523zm-73.301-31.19V74.667h-21.334v42.666H74.667L128 170.667l53.333-53.334h-42.666z"/><glyph glyph-name="compass-04" unicode="" horiz-adv-x="256" d="M128 256C57.419 256 0 198.581 0 128S57.419 0 128 0s128 57.419 128 128-57.419 128-128 128zm10.667-234.123v20.79h-21.334v-20.79C67.02 26.891 26.891 67.02 21.877 117.333h20.79v21.334h-20.79c5.014 50.314 45.142 90.442 95.456 95.456v-20.79h21.334v20.79c50.314-5.024 90.442-45.142 95.456-95.456h-20.79v-21.334h20.79c-5.014-50.314-45.142-90.442-95.456-95.456zM98.539 157.461L54.357 54.357 157.461 98.54l44.182 103.104L98.539 157.46zm-3.563-62.485l19.819 46.23 26.421-26.422-46.24-19.808z"/><glyph glyph-name="controller" unicode="" horiz-adv-x="256" d="M138.667 234.667c0 5.888-4.779 10.666-10.667 10.666s-10.667-4.778-10.667-10.666v-53.334h21.334v53.334zM192 160H64c-35.296 0-64-28.704-64-64s28.704-64 64-64c22.987 0 44.021 12.352 55.37 32h17.249c11.349-19.648 32.384-32 55.37-32 35.296 0 64 28.704 64 64S227.296 160 192 160zM96 85.333H74.667V64H53.333v21.333H32v21.334h21.333V128h21.334v-21.333H96V85.333zM181.333 64c-5.888 0-10.666 4.779-10.666 10.667s4.778 10.666 10.666 10.666S192 80.555 192 74.667C192 68.779 187.221 64 181.333 64zm32 32c-5.888 0-10.666 4.779-10.666 10.667s4.778 10.666 10.666 10.666S224 112.555 224 106.667C224 100.779 219.221 96 213.333 96z"/><glyph glyph-name="credit-card" unicode="" horiz-adv-x="256" d="M256 170.677v42.656c0 11.787-9.547 21.334-21.333 21.334H21.333C9.547 234.667 0 225.12 0 213.333v-42.656h256zM0 138.667v-96C0 30.88 9.547 21.333 21.333 21.333h213.334c11.786 0 21.333 9.547 21.333 21.334v96H0zm117.333-64H42.667V96h74.666V74.667zm96 0h-42.666V96h42.666V74.667z"/><glyph glyph-name="curved-next" unicode="" horiz-adv-x="256" d="M138.667 96V27.733L249.6 138.667 138.667 249.6v-68.267C89.6 179.2 0 158.933 0 42.667V3.2l20.267 34.133c25.6 43.734 51.2 57.6 118.4 58.667z"/><glyph glyph-name="delivery-fast" unicode="" horiz-adv-x="256" d="M0 245.333h96V224H0v21.333zm21.333-42.666H96v-21.334H21.333v21.334zM42.667 160H96v-21.333H42.667V160zM64 117.333h32V96H64v21.333zm186.101 20.214l-38.282 19.136-9.472 37.898A10.656 10.656 0 0 1 192 202.667h-74.667V64c0-5.856.544-10.667.544-10.667 2.688-23.936 22.816-42.666 47.456-42.666s44.768 18.73 47.456 42.666h32.544C251.221 53.333 256 58.112 256 64v64c0 4.043-2.283 7.733-5.899 9.547zM165.333 32c-14.698 0-26.666 11.957-26.666 26.667s11.968 26.666 26.666 26.666S192 73.376 192 58.667 180.032 32 165.333 32zm-26.666 117.333v32h46.336l6.997-32h-53.333z"/><glyph glyph-name="diamond" unicode="" horiz-adv-x="256" d="M200.192 241.493a10.66 10.66 0 0 1-8.192 3.84H64a10.66 10.66 0 0 1-8.192-3.84l-53.333-64a10.672 10.672 0 0 1-.416-13.13l117.333-160C121.408 1.62 124.608 0 128 0s6.592 1.621 8.608 4.363l117.333 160a10.657 10.657 0 0 1-.416 13.13l-53.333 64zM202.667 160H53.333v21.333h149.334V160z"/><glyph glyph-name="email-83" unicode="" horiz-adv-x="256" d="M245.333 234.667H10.667C4.267 234.667 0 230.4 0 224v-32c0-4.267 2.133-7.467 5.333-9.6l117.334-64c2.133-1.067 3.2-1.067 5.333-1.067s3.2 0 5.333 1.067l117.334 64c3.2 2.133 5.333 5.333 5.333 9.6v32c0 6.4-4.267 10.667-10.667 10.667zm-102.4-134.4C138.667 97.067 133.333 96 128 96s-10.667 1.067-14.933 4.267L0 161.067V32c0-6.4 4.267-10.667 10.667-10.667h234.666C251.733 21.333 256 25.6 256 32v129.067l-113.067-60.8z"/><glyph glyph-name="fat-add" unicode="" horiz-adv-x="256" d="M192 149.333h-42.667V192h-42.666v-42.667H64v-42.666h42.667V64h42.666v42.667H192z"/><glyph glyph-name="fat-delete" unicode="" horiz-adv-x="256" d="M64 149.333h128v-42.666H64v42.666z"/><glyph glyph-name="fat-remove" unicode="" horiz-adv-x="256" d="M188.8 98.133L157.867 128l30.933 29.867-30.933 30.933L128 157.867 98.133 188.8 67.2 157.867 98.133 128 67.2 98.133 98.133 67.2 128 98.133 157.867 67.2z"/><glyph glyph-name="favourite-28" unicode="" horiz-adv-x="256" d="M181.333 256c-20.266 0-39.466-8.533-53.333-22.4-13.867 13.867-33.067 22.4-53.333 22.4C33.067 256 0 222.933 0 181.333 0 113.067 116.267 17.067 121.6 12.8c2.133-2.133 4.267-2.133 6.4-2.133s4.267 1.066 6.4 2.133C139.733 17.067 256 113.067 256 181.333c0 41.6-33.067 74.667-74.667 74.667z"/><glyph glyph-name="folder-17" unicode="" horiz-adv-x="256" d="M101.333 224c6.4 0 12.8-3.2 17.067-8.533l25.6-34.134h90.667v64c0 6.4-4.267 10.667-10.667 10.667H32c-6.4 0-10.667-4.267-10.667-10.667V224h80zm144-64h-112l-28.8 38.4c-2.133 3.2-5.333 4.267-8.533 4.267H10.667C4.267 202.667 0 198.4 0 192V10.667C0 4.267 4.267 0 10.667 0h234.666C251.733 0 256 4.267 256 10.667v138.666c0 6.4-4.267 10.667-10.667 10.667z"/><glyph glyph-name="glasses-2" unicode="" horiz-adv-x="256" d="M213.333 245.333h-10.666V224h10.666c11.766 0 21.334-9.568 21.334-21.333v-88.118C224.512 122.944 211.499 128 197.333 128c-21.12 0-39.616-11.253-49.941-28.053-5.397 4.149-12.075 6.72-19.392 6.72s-13.995-2.571-19.392-6.72C98.283 116.747 79.787 128 58.667 128c-14.166 0-27.179-5.056-37.334-13.45v88.117c0 11.765 9.568 21.333 21.334 21.333h10.666v21.333H42.667C19.136 245.333 0 226.197 0 202.667V69.333c0-32.341 26.325-58.666 58.667-58.666 30.538 0 55.69 23.477 58.4 53.333h.266v10.667c0 5.888 4.779 10.666 10.667 10.666s10.667-4.778 10.667-10.666V64h.266c2.71-29.856 27.851-53.333 58.4-53.333 32.342 0 58.667 26.325 58.667 58.666v133.334c0 23.53-19.136 42.666-42.667 42.666z"/><glyph glyph-name="hat-3" unicode="" horiz-adv-x="256" d="M234.667 138.667H256v-64h-21.333v64zm-93.43-50.454c-4.202-1.92-8.65-2.88-13.237-2.88s-9.035.96-13.227 2.87L42.667 120.98V64c0-28.01 42.922-42.667 85.333-42.667S213.333 35.99 213.333 64v56.97l-72.096-32.757zm108.512 92.16l-117.333 53.334a10.693 10.693 0 0 1-8.821 0L6.26 180.373C2.443 178.645 0 174.86 0 170.667s2.443-7.979 6.25-9.707l117.334-53.333c1.408-.64 2.912-.96 4.416-.96s3.008.32 4.416.96l117.333 53.333c3.808 1.728 6.251 5.515 6.251 9.707s-2.443 7.978-6.25 9.706z"/><glyph glyph-name="headphones" unicode="" horiz-adv-x="256" d="M245.333 106.112V160c0 52.928-43.072 96-96 96h-42.666c-52.928 0-96-43.072-96-96v-53.888C3.947 95.435 0 82.848 0 69.333 0 31.104 31.104 0 69.333 0c6.294 0 12.651.896 18.902 2.667A10.666 10.666 0 0 1 96 12.928v112.81c0 4.769-3.168 8.96-7.765 10.262-6.251 1.77-12.608 2.667-18.902 2.667-13.749 0-26.538-4.075-37.333-11.008V160c0 41.173 33.493 74.667 74.667 74.667h42.666C190.507 234.667 224 201.173 224 160v-32.341c-10.795 6.933-23.584 11.008-37.333 11.008-6.294 0-12.651-.896-18.902-2.667A10.666 10.666 0 0 1 160 125.739v-112.8c0-4.768 3.168-8.96 7.765-10.262C174.016.896 180.373 0 186.667 0 224.896 0 256 31.104 256 69.333c0 13.515-3.947 26.102-10.667 36.779z"/><glyph glyph-name="html5" unicode="" horiz-adv-x="256" d="M231.947 241.781a10.64 10.64 0 0 1-7.947 3.552H32c-3.04 0-5.93-1.29-7.947-3.552a10.674 10.674 0 0 1-2.656-8.288l21.334-192c.469-4.298 3.509-7.882 7.669-9.088l74.667-21.333c.96-.267 1.952-.405 2.933-.405s1.973.138 2.933.405L205.6 32.405a10.681 10.681 0 0 1 7.67 9.088l21.333 192c.33 3.008-.63 6.027-2.656 8.288zM192 181.333H86.261l3.552-42.666h97.974l-7.254-72.534L128 53.003 74.667 66.336V96H96V82.997l32-8 32.8 8.203 3.413 34.133H70.187l-7.115 85.334H192v-21.334z"/><glyph glyph-name="istanbul" unicode="" horiz-adv-x="256" d="M234.667 221.867v23.466c0 6.4-4.267 10.667-10.667 10.667s-10.667-4.267-10.667-10.667v-23.466C200.533 217.6 192 205.867 192 192v-64c0 32-23.467 57.6-53.333 62.933v22.4c0 6.4-4.267 10.667-10.667 10.667s-10.667-4.267-10.667-10.667v-22.4C87.467 185.6 64 160 64 128v64c0 13.867-8.533 25.6-21.333 29.867v23.466C42.667 251.733 38.4 256 32 256s-10.667-4.267-10.667-10.667v-23.466C8.533 217.6 0 205.867 0 192V10.667C0 4.267 4.267 0 10.667 0h96v21.333c0 11.734 9.6 21.334 21.333 21.334 11.733 0 21.333-9.6 21.333-21.334V0h96C251.733 0 256 4.267 256 10.667V192c0 13.867-8.533 25.6-21.333 29.867zm-192-51.2H21.333V192c0 6.4 4.267 10.667 10.667 10.667S42.667 198.4 42.667 192v-21.333zm128-53.334H85.333V128c0 23.467 19.2 42.667 42.667 42.667 23.467 0 42.667-19.2 42.667-42.667v-10.667zm64 53.334h-21.334V192c0 6.4 4.267 10.667 10.667 10.667S234.667 198.4 234.667 192v-21.333z"/><glyph glyph-name="key-25" unicode="" horiz-adv-x="256" d="M252.875 178.208l-35.126 35.125 24.459 24.459c4.17 4.17 4.17 10.912 0 15.083s-10.912 4.17-15.083 0L116.277 142.027c2.795-2.176 5.515-4.48 8.064-7.019 2.55-2.55 4.843-5.27 7.019-8.064l39.307 39.307 35.125-35.126c2.08-2.08 4.81-3.125 7.541-3.125s5.462 1.045 7.542 3.125l32 32a10.655 10.655 0 0 1 0 15.083zM64 10.667c17.099 0 33.163 6.656 45.259 18.741S128 57.568 128 74.667s-6.656 33.162-18.741 45.258S81.099 138.667 64 138.667s-33.163-6.656-45.259-18.742S0 91.765 0 74.667s6.656-33.163 18.741-45.259S46.901 10.667 64 10.667z"/><glyph glyph-name="laptop" unicode="" horiz-adv-x="256" d="M224 108.853v104.48c0 11.766-9.568 21.334-21.333 21.334H53.333c-11.765 0-21.333-9.568-21.333-21.334v-104.48L7.232 51.072a21.305 21.305 0 0 1 1.803-20.15 21.269 21.269 0 0 1 17.813-9.589h202.315c7.189 0 13.845 3.584 17.813 9.59a21.274 21.274 0 0 1 1.792 20.149L224 108.853zm-21.333 8.48H53.333v96h149.334v-96z"/><glyph glyph-name="like-2" unicode="" horiz-adv-x="256" d="M53.333 21.333H32c-6.4 0-10.667 4.267-10.667 10.667v96c0 6.4 4.267 10.667 10.667 10.667h21.333C59.733 138.667 64 134.4 64 128V32c0-6.4-4.267-10.667-10.667-10.667zm160 128H160v32c0 18.134-10.667 42.667-26.667 52.267-7.466 3.2-16-1.067-16-9.6v-42.667l-32-38.4V32l3.2-1.067c11.734-6.4 25.6-9.6 39.467-9.6h74.667c11.733 0 21.333 9.6 21.333 21.334L234.667 128c0 11.733-9.6 21.333-21.334 21.333z"/><glyph glyph-name="lock-circle-open" unicode="" horiz-adv-x="256" d="M128 170.667c-15.552 0-30.101-4.246-42.667-11.542V192c0 23.53 19.136 42.667 42.667 42.667S170.667 215.53 170.667 192H192c0 35.296-28.704 64-64 64s-64-28.704-64-64v-50.41c-13.237-15.04-21.333-34.7-21.333-56.257C42.667 38.283 80.949 0 128 0s85.333 38.283 85.333 85.333-38.282 85.334-85.333 85.334zm10.667-104.704V42.667h-21.334v23.296C104.95 70.379 96 82.112 96 96c0 17.643 14.357 32 32 32s32-14.357 32-32c0-13.888-8.95-25.621-21.333-30.037z"/><glyph glyph-name="map-big" unicode="" horiz-adv-x="256" d="M181.333 241.259l-42.666-21.334V14.741l42.666 21.334zm-64-21.334L74.667 241.26V36.075l42.666-21.334zm-64 20.779l-48.16-28.896A10.662 10.662 0 0 1 0 202.667V0l53.333 34.496v206.208zm197.494-28.896l-48.16 28.896V34.496L256 0v202.667c0 3.754-1.973 7.221-5.173 9.141z"/><glyph glyph-name="mobile-button" unicode="" horiz-adv-x="256" d="M192 256H64c-17.643 0-32-14.357-32-32V32C32 14.357 46.357 0 64 0h128c17.643 0 32 14.357 32 32v192c0 17.643-14.357 32-32 32zM128 21.333c-5.888 0-10.667 4.779-10.667 10.667S122.112 42.667 128 42.667 138.667 37.888 138.667 32 133.888 21.333 128 21.333zm74.667 53.334C202.667 68.779 197.888 64 192 64H64c-5.888 0-10.667 4.779-10.667 10.667v138.666C53.333 219.221 58.112 224 64 224h128c5.888 0 10.667-4.779 10.667-10.667V74.667z"/><glyph glyph-name="money-coins" unicode="" horiz-adv-x="256" d="M85.333 106.667H10.667C4.779 106.667 0 111.445 0 117.333v128C0 251.221 4.779 256 10.667 256h192c5.888 0 10.666-4.779 10.666-10.667V192H192v42.667H21.333V128h64v-21.333zm96-21.334c-31.477 0-57.632 6.816-74.666 18.262V85.333c0-17.674 33.429-32 74.666-32S256 67.66 256 85.333v18.262c-17.035-11.446-43.19-18.262-74.667-18.262zm0-53.333c-31.477 0-57.632 6.816-74.666 18.261V32c0-17.675 33.429-32 74.666-32S256 14.325 256 32v18.261C238.965 38.816 212.81 32 181.333 32zM95.03 163.499c7.318 8.544 18.496 15.52 32.704 20.437-1.29 10.517-10.186 18.73-21.066 18.73-11.766 0-21.334-9.567-21.334-21.333 0-7.466 3.872-14.026 9.696-17.834zm11.638-24.832c0-17.673 33.43-32 74.666-32 41.238 0 74.667 14.327 74.667 32 0 17.673-33.43 32-74.667 32s-74.666-14.327-74.666-32z"/><glyph glyph-name="note-03" unicode="" horiz-adv-x="256" d="M245.333 256h-160c-5.888 0-10.666-4.779-10.666-10.667V87.872C67.029 92.992 57.867 96 48 96 21.536 96 0 74.464 0 48S21.536 0 48 0s48 21.536 48 48v122.667h138.667v-61.462c-7.638 5.12-16.8 8.128-26.667 8.128-26.464 0-48-21.536-48-48s21.536-48 48-48 48 21.536 48 48v176c0 5.888-4.779 10.667-10.667 10.667z"/><glyph glyph-name="notification-70" unicode="" horiz-adv-x="256" d="M202.667 256c-32 0-61.867-16-80-42.667H32c-18.133 0-32-22.4-32-53.333s13.867-53.333 32-53.333h24.533L102.4 28.8c6.4-10.667 19.2-13.867 28.8-7.467 10.667 6.4 13.867 19.2 7.467 28.8L105.6 106.667h17.067C140.8 80 170.667 64 202.667 64 233.6 64 256 105.6 256 160s-22.4 96-53.333 96zm0-170.667c-9.6 0-20.267 13.867-26.667 35.2 16 6.4 26.667 21.334 26.667 39.467S192 193.067 176 199.467c6.4 21.333 17.067 35.2 26.667 35.2 14.933 0 32-32 32-74.667s-17.067-74.667-32-74.667z"/><glyph glyph-name="palette" unicode="" horiz-adv-x="256" d="M217.6 190.933c-11.733 5.334-23.467 8.534-36.267 8.534-17.066 0-32-5.334-45.866-9.6-8.534-3.2-17.067-5.334-23.467-5.334-4.267 0-6.4 1.067-7.467 3.2 0 1.067 1.067 6.4 2.134 9.6 3.2 9.6 6.4 21.334-2.134 33.067-5.333 6.4-13.866 10.667-23.466 10.667-9.6 0-18.134-3.2-26.667-8.534C20.267 209.067 0 169.6 0 128 0 57.6 57.6 0 128 0c56.533 0 107.733 38.4 123.733 93.867 1.067 6.4 16 72.533-34.133 97.066zM32 128c0 11.733 9.6 21.333 21.333 21.333s21.334-9.6 21.334-21.333-9.6-21.333-21.334-21.333S32 116.267 32 128zm48-74.667c-11.733 0-21.333 9.6-21.333 21.334S68.267 96 80 96s21.333-9.6 21.333-21.333S91.733 53.333 80 53.333zM138.667 32c-11.734 0-21.334 9.6-21.334 21.333s9.6 21.334 21.334 21.334S160 65.067 160 53.333 150.4 32 138.667 32zm42.666 64c-18.133 0-32 13.867-32 32s13.867 32 32 32 32-13.867 32-32-13.866-32-32-32z"/><glyph glyph-name="paper-diploma" unicode="" horiz-adv-x="256" d="M74.667 37.333c0-12.725-12.736-15.434-16.427-15.957-8.63.235-15.573 7.285-15.573 15.957v197.334h96V256H32c-5.888 0-10.667-4.779-10.667-10.667v-208C21.333 16.747 38.08 0 58.667 0h160C239.253 0 256 16.747 256 37.333v16H74.667v-16zm128 90.667c-15.862 0-30.56 5.013-42.667 13.483V74.667l42.667 32 42.666-32v66.816C233.227 133.013 218.528 128 202.667 128zm-53.334 74.667c0-29.456 23.878-53.334 53.334-53.334 29.455 0 53.333 23.878 53.333 53.334C256 232.122 232.122 256 202.667 256c-29.456 0-53.334-23.878-53.334-53.333z"/><glyph glyph-name="pin-3" unicode="" horiz-adv-x="256" d="M128 256c-46.933 0-96-36.267-96-96 0-56.533 85.333-142.933 88.533-146.133 2.134-2.134 4.267-3.2 7.467-3.2s5.333 1.066 7.467 3.2c3.2 3.2 88.533 89.6 88.533 146.133 0 59.733-49.067 96-96 96zm0-128c-18.133 0-32 13.867-32 32s13.867 32 32 32 32-13.867 32-32-13.867-32-32-32z"/><glyph glyph-name="planet" unicode="" horiz-adv-x="256" d="M228.608 54.624c7.157-17.099 7.424-28.181 3.925-31.69-4.426-4.427-21.386-1.227-46.549 12.885C209.205 55.413 224 84.66 224 117.333 224 176.15 176.15 224 117.333 224c-32.672 0-61.92-14.795-81.504-38.005-14.122 25.162-17.312 42.122-12.896 46.549 3.51 3.499 14.592 3.232 31.691-3.925 8.085 4.586 16.715 8.224 25.76 10.986-33.099 18.347-58.997 21.579-72.544 8.032-15.67-15.701-6.475-46.89 14.827-81.354-7.627-14.678-12-31.296-12-48.95 0-58.816 47.85-106.666 106.666-106.666 17.654 0 34.272 4.373 48.95 12C200.757 1.365 231.936-7.83 247.627 7.86c13.546 13.547 10.314 39.435-8.032 72.544-2.752-9.056-6.4-17.696-10.987-25.781zM69.333 96c-8.832 0-16 7.168-16 16s7.168 16 16 16 16-7.168 16-16-7.168-16-16-16zm69.334-21.333c-5.888 0-10.667 4.778-10.667 10.666C128 91.221 132.779 96 138.667 96s10.666-4.779 10.666-10.667-4.778-10.666-10.666-10.666zm-5.334 64c-8.832 0-16 7.168-16 16s7.168 16 16 16 16-7.168 16-16-7.168-16-16-16z"/><glyph glyph-name="ruler-pencil" unicode="" horiz-adv-x="256" d="M202.667 0c-3.35 0-6.518 1.579-8.534 4.267l-32 42.666a10.66 10.66 0 0 0-2.133 6.4v149.334h85.333V53.333a10.66 10.66 0 0 0-2.133-6.4l-32-42.666A10.674 10.674 0 0 0 202.667 0zm32 256h-64c-5.888 0-10.667-4.779-10.667-10.667V224h85.333v21.333c0 5.888-4.778 10.667-10.666 10.667zm-128 0H21.333c-6.4 0-10.666-4.267-10.666-10.667v-42.666h42.666v-21.334H10.667V160h32v-21.333h-32v-21.334h42.666V96H10.667V74.667h32V53.333h-32V10.667C10.667 4.267 14.933 0 21.333 0h85.334c6.4 0 10.666 4.267 10.666 10.667v234.666c0 6.4-4.266 10.667-10.666 10.667z"/><glyph glyph-name="satisfied" unicode="" horiz-adv-x="256" d="M128 256C57.6 256 0 198.4 0 128S57.6 0 128 0s128 57.6 128 128-57.6 128-128 128zm-74.667-96c0 18.133 13.867 32 32 32 18.134 0 32-13.867 32-32H96c0 6.4-4.267 10.667-10.667 10.667-6.4 0-10.666-4.267-10.666-10.667H53.333zm149.334-42.667c0-41.6-33.067-74.666-74.667-74.666s-74.667 33.066-74.667 74.666h21.334C74.667 87.467 98.133 64 128 64c29.867 0 53.333 23.467 53.333 53.333h21.334zM181.333 160c0 6.4-4.266 10.667-10.666 10.667S160 166.4 160 160h-21.333c0 18.133 13.866 32 32 32 18.133 0 32-13.867 32-32h-21.334z"/><glyph glyph-name="scissors" unicode="" horiz-adv-x="256" d="M197.333 96c-7.765 0-14.997-2.027-21.504-5.323l-23.552 27.467 60 60c20.683 20.683 24.64 52.779 9.59 77.856L128 146.485 34.133 256c-15.05-25.077-11.093-57.173 9.59-77.845l60-60L80.17 90.688C73.664 93.973 66.432 96 58.667 96c-26.464 0-48-21.536-48-48s21.536-48 48-48 48 21.536 48 48c0 7.168-1.686 13.91-4.512 20.021L128 93.867l25.845-25.846c-2.826-6.112-4.512-12.853-4.512-20.021 0-26.464 21.536-48 48-48s48 21.536 48 48-21.536 48-48 48zM58.667 21.333C43.968 21.333 32 33.291 32 48s11.968 26.667 26.667 26.667S85.333 62.709 85.333 48 73.365 21.333 58.667 21.333zm112 26.667c0 14.71 11.968 26.667 26.666 26.667S224 62.709 224 48s-11.968-26.667-26.667-26.667S170.667 33.291 170.667 48z"/><glyph glyph-name="send" unicode="" horiz-adv-x="256" d="M15.179 138.155l27.488-20.822 96 42.667-74.422-58.656v-71.99c0-9.951 12.416-14.485 18.827-6.869l33.397 39.68 69.334-52.01c6.282-4.704 15.317-1.259 16.864 6.442l42.709 213.334c1.664 8.309-6.56 15.146-14.421 12L17.62 156.597c-7.722-3.093-9.098-13.45-2.442-18.442z"/><glyph glyph-name="settings-gear-65" unicode="" horiz-adv-x="256" d="M224 149.333h-13.867c-2.133 7.467-5.333 14.934-9.6 22.4l9.6 9.6c8.534 8.534 8.534 21.334 0 29.867-8.533 8.533-21.333 8.533-29.866 0l-9.6-9.6c-6.4 4.267-13.867 7.467-22.4 9.6V224c0 11.733-9.6 21.333-21.334 21.333S105.6 235.733 105.6 224v-13.867c-6.4-2.133-13.867-4.266-21.333-8.533l-8.534 9.6c-8.533 8.533-21.333 8.533-29.866 0-8.534-8.533-8.534-21.333 0-29.867l9.6-9.6c-5.334-7.466-7.467-14.933-9.6-22.4H32c-11.733 0-21.333-9.6-21.333-21.333 0-11.733 9.6-21.333 21.333-21.333h13.867c2.133-7.467 5.333-14.934 9.6-22.4l-9.6-9.6c-8.534-8.534-8.534-21.334 0-29.867 8.533-8.533 21.333-8.533 29.866 0l9.6 9.6c6.4-4.267 13.867-7.467 22.4-9.6V32c0-11.733 9.6-21.333 21.334-21.333S150.4 20.267 150.4 32v13.867c7.467 2.133 14.933 5.333 22.4 9.6l9.6-9.6c8.533-8.534 21.333-8.534 29.867 0 8.533 8.533 8.533 21.333 0 29.866l-9.6 9.6c4.266 6.4 7.466 13.867 9.6 22.4H224c11.733 0 21.333 9.6 21.333 21.334 0 10.666-9.6 20.266-21.333 20.266zM128 96c-18.133 0-32 13.867-32 32s13.867 32 32 32 32-13.867 32-32-13.867-32-32-32z"/><glyph glyph-name="settings" unicode="" horiz-adv-x="256" d="M115.765 155.317l-44.224 44.224 13.792 13.792L42.667 256 0 213.333l42.667-42.666 13.792 13.792L98.016 142.9zm86.262-48.01c-3.296-.384-6.635-.64-10.027-.64-3.253 0-6.485.192-9.728.565l-38.837-47.99 48.192-48.191c14.73-14.731 38.602-14.731 53.333 0 14.73 14.73 14.73 38.602 0 53.333l-42.933 42.923zm14.197 76.469l-32.448 32.448 34.219 34.219C210.048 253.984 201.269 256 192 256c-35.35 0-64-28.65-64-64 0-6.336.95-12.437 2.667-18.219L15.584 80.661C6.08 72.267.405 60.192.021 47.531c-.394-12.672 4.523-25.078 13.483-34.027C22.208 4.789 33.781 0 46.091 0a46.132 46.132 0 0 1 34.57 15.584l93.12 115.083A63.829 63.829 0 0 1 192 128c35.35 0 64 28.65 64 64 0 9.27-2.016 18.048-5.557 26.005l-34.219-34.229z"/><glyph glyph-name="single-02" unicode="" horiz-adv-x="256" d="M164.917 106.421C153.856 99.925 141.42 96 128 96s-25.856 3.925-36.917 10.421C52.203 103.872 21.333 71.51 21.333 32V13.547l7.414-2.379C30.176 10.72 64.405 0 128 0s97.824 10.72 99.253 11.168l7.414 2.379V32c0 39.51-30.87 71.872-69.75 74.421zM128 117.333c36.043 0 64 40.139 64 74.667 0 35.296-28.704 64-64 64s-64-28.704-64-64c0-34.528 27.957-74.667 64-74.667z"/><glyph glyph-name="single-copy-04" unicode="" horiz-adv-x="256" d="M245.333 21.333H224v213.334H42.667V256h192c5.888 0 10.666-4.779 10.666-10.667v-224zm-53.333 192H21.333c-5.888 0-10.666-4.778-10.666-10.666v-192C10.667 4.779 15.445 0 21.333 0H192c5.888 0 10.667 4.779 10.667 10.667v192c0 5.888-4.779 10.666-10.667 10.666zm-74.667-160h-64v21.334h64V53.333zM160 96H53.333v21.333H160V96zm0 42.667H53.333V160H160v-21.333z"/><glyph glyph-name="sound-wave" unicode="" horiz-adv-x="256" d="M96 32a10.696 10.696 0 0 0-9.91 6.699l-35.135 87.84-10.08-15.126A10.68 10.68 0 0 0 32 106.667H0V128h26.293l18.166 27.253c2.197 3.286 5.962 5.056 9.984 4.694 3.936-.416 7.338-2.966 8.8-6.646l31.52-78.826 44.394 142.037A10.645 10.645 0 0 0 149.333 224h.022c4.672-.01 8.8-3.061 10.176-7.53l36.501-118.646 19.435 25.91A10.644 10.644 0 0 0 224 128h32v-21.333h-26.667l-28.8-38.4c-2.4-3.2-6.389-4.779-10.368-4.107a10.694 10.694 0 0 0-8.362 7.37l-32.555 105.782-43.072-137.824a10.645 10.645 0 0 0-9.76-7.477C96.266 32 96.139 32 96 32z"/><glyph glyph-name="spaceship" unicode="" horiz-adv-x="256" d="M254.592 243.35a10.624 10.624 0 0 1-11.2 11.253c-44.747-2.336-80.992-15.926-109.93-33.814C98.4 233.6 59.423 225.376 32.756 198.7a96.544 96.544 0 0 1-14.752-19.19c-2.464-4.181-1.781-9.514 1.654-12.96L50.4 135.808c-8.363-13.835-12.31-23.285-12.448-23.637a10.678 10.678 0 0 1 2.357-11.52l60.342-60.342a10.667 10.667 0 0 1 11.584-2.336c.352.139 9.728 4.118 23.488 12.523l30.837-30.837a10.613 10.613 0 0 1 12.96-1.643 95.936 95.936 0 0 1 19.19 14.752c26.9 26.901 35.071 66.059 21.962 101.227 17.813 28.864 31.403 64.938 33.92 109.354zM110.485 60.64l-49.898 49.888c8.714 18.005 37.738 69.173 96.544 99.573l52.693-52.693c-30.453-58.699-81.355-87.947-99.339-96.768zM128 149.333c0-11.782 9.551-21.333 21.333-21.333 11.782 0 21.334 9.551 21.334 21.333 0 11.782-9.552 21.334-21.334 21.334S128 161.115 128 149.333zM11.872 54.997a30.325 30.325 0 1 0 42.901-42.901C42.923.246 0 0 0 0s.021 43.157 11.872 54.997z"/><glyph glyph-name="square-pin" unicode="" horiz-adv-x="256" d="M234.667 0H21.333c-3.701 0-7.125 1.92-9.077 5.056a10.674 10.674 0 0 0-.47 10.379l32 64c2.635 5.269 9.035 7.402 14.315 4.768 5.27-2.635 7.403-9.046 4.768-14.315L38.592 21.333h178.816L193.131 69.9c-2.635 5.269-.502 11.68 4.768 14.314 5.28 2.635 11.68.491 14.314-4.768l32-64a10.674 10.674 0 0 0-.469-10.378A10.68 10.68 0 0 0 234.667 0zM128 256c-41.952 0-85.333-31.915-85.333-85.333 0-49.067 69.802-120.822 77.76-128.854 2.005-2.016 4.725-3.146 7.573-3.146s5.568 1.13 7.573 3.146c7.958 8.032 77.76 79.787 77.76 128.854C213.333 224.085 169.952 256 128 256zm0-106.667c-11.787 0-21.333 9.547-21.333 21.334 0 11.786 9.546 21.333 21.333 21.333s21.333-9.547 21.333-21.333c0-11.787-9.546-21.334-21.333-21.334z"/><glyph glyph-name="support-16" unicode="" horiz-adv-x="256" d="M245.333 160h-4.416A116.94 116.94 0 0 1 160 240.917v4.416c0 5.888-4.768 10.667-10.667 10.667h-42.666C100.768 256 96 251.221 96 245.333v-4.416A116.94 116.94 0 0 1 15.083 160h-4.416C4.768 160 0 155.221 0 149.333v-42.666C0 100.779 4.768 96 10.667 96h4.416A116.94 116.94 0 0 1 96 15.083v-4.416C96 4.779 100.768 0 106.667 0h42.666C155.232 0 160 4.779 160 10.667v4.416A116.94 116.94 0 0 1 240.917 96h4.416c5.899 0 10.667 4.779 10.667 10.667v42.666c0 5.888-4.768 10.667-10.667 10.667zM128 85.333c-23.53 0-42.667 19.136-42.667 42.667S104.47 170.667 128 170.667 170.667 151.53 170.667 128 151.53 85.333 128 85.333zM218.475 160h-35.136A64.26 64.26 0 0 1 160 183.339v35.136A95.468 95.468 0 0 0 218.475 160zM96 218.475v-35.136A64.26 64.26 0 0 1 72.661 160H37.525A95.468 95.468 0 0 0 96 218.475zM37.525 96h35.136A64.26 64.26 0 0 1 96 72.661V37.525A95.468 95.468 0 0 0 37.525 96zM160 37.525v35.136A64.341 64.341 0 0 1 183.339 96h35.136A95.468 95.468 0 0 0 160 37.525z"/><glyph glyph-name="tablet-button" unicode="" horiz-adv-x="256" d="M213.333 256H42.667c-17.643 0-32-14.357-32-32V32c0-17.643 14.357-32 32-32h170.666c17.643 0 32 14.357 32 32v192c0 17.643-14.357 32-32 32zM128 21.333c-5.888 0-10.667 4.779-10.667 10.667S122.112 42.667 128 42.667 138.667 37.888 138.667 32 133.888 21.333 128 21.333zm96 53.334C224 68.779 219.221 64 213.333 64H42.667C36.779 64 32 68.779 32 74.667v138.666C32 219.221 36.779 224 42.667 224h170.666c5.888 0 10.667-4.779 10.667-10.667V74.667z"/><glyph glyph-name="tag" unicode="" horiz-adv-x="256" d="M242.208 124.875L124.875 242.208a10.683 10.683 0 0 1-7.542 3.125h-96c-5.888 0-10.666-4.778-10.666-10.666v-96c0-2.827 1.12-5.547 3.125-7.542L131.125 13.792c2.08-2.09 4.811-3.125 7.542-3.125s5.461 1.045 7.541 3.125l96 96c4.17 4.16 4.17 10.912 0 15.083zM74.667 160c-11.787 0-21.334 9.547-21.334 21.333 0 11.787 9.547 21.334 21.334 21.334S96 193.12 96 181.333C96 169.547 86.453 160 74.667 160z"/><glyph glyph-name="tie-bow" unicode="" horiz-adv-x="256" d="M128 74.667c-11.733 0-21.333 9.6-21.333 21.333v64c0 11.733 9.6 21.333 21.333 21.333 11.733 0 21.333-9.6 21.333-21.333V96c0-11.733-9.6-21.333-21.333-21.333zM240 204.8c-9.6 5.333-21.333 6.4-32 0l-42.667-23.467c3.2-6.4 5.334-13.866 5.334-21.333v-21.333h32v-21.334h-32V96c0-7.467-2.134-14.933-5.334-21.333l43.734-24.534c5.333-3.2 10.666-4.266 16-4.266 5.333 0 10.666 1.066 16 4.266 9.6 5.334 16 16 16 27.734v99.2C256 188.8 249.6 198.4 240 204.8zM85.333 117.333h-32v21.334h32V160c0 7.467 2.134 14.933 5.334 21.333L48 204.8c-9.6 5.333-22.4 5.333-32 0-9.6-6.4-16-16-16-27.733V78.933C0 67.2 6.4 57.6 16 51.2c5.333-3.2 10.667-4.267 16-4.267S42.667 48 48 51.2l42.667 23.467c-3.2 6.4-5.334 13.866-5.334 21.333v21.333z"/><glyph glyph-name="time-alarm" unicode="" horiz-adv-x="256" d="M244.267 158.933c2.133 1.067 4.266 2.134 5.333 4.267 4.267 9.6 6.4 19.2 6.4 28.8 0 35.2-28.8 64-64 64-16 0-30.933-6.4-42.667-17.067-2.133-2.133-3.2-4.266-3.2-6.4 43.734-5.333 81.067-34.133 98.134-73.6zm-232.534 0c18.134 39.467 54.4 67.2 98.134 73.6 0 2.134-1.067 4.267-3.2 6.4C94.933 249.6 80 256 64 256c-35.2 0-64-28.8-64-64 0-9.6 2.133-19.2 6.4-27.733 1.067-2.134 3.2-4.267 5.333-5.334zm219.734-140.8l-21.334 21.334c14.934 18.133 24.534 41.6 24.534 67.2 0 58.666-48 106.666-106.667 106.666s-106.667-48-106.667-106.666c0-25.6 8.534-49.067 24.534-67.2L24.533 18.133c-4.266-4.266-4.266-10.666 0-14.933C26.667 1.067 28.8 0 32 0s5.333 1.067 7.467 3.2L60.8 24.533C78.933 8.533 102.4 0 128 0s49.067 8.533 67.2 24.533L216.533 3.2C218.667 1.067 221.867 0 224 0s5.333 1.067 7.467 3.2c4.266 4.267 4.266 10.667 0 14.933zM181.333 96h-64v64h21.334v-42.667h42.666V96z"/><glyph glyph-name="trophy" unicode="" horiz-adv-x="256" d="M213.333 234.667V256H42.667v-21.333H0v-64C0 147.14 19.135 128 42.667 128h6.282c10.07-24.783 31.457-43.728 57.718-50.525V42.667H96c-17.646 0-32-14.354-32-32V0h128v10.667c0 17.646-14.354 32-32 32h-10.667v34.808c26.261 6.797 47.647 25.742 57.718 50.525h6.282C236.865 128 256 147.14 256 170.667v64h-42.667zM42.667 149.333c-11.76 0-21.334 9.568-21.334 21.334v42.666h21.334V160c0-3.62.301-7.164.74-10.667h-.74zm192 21.334c0-11.766-9.573-21.334-21.334-21.334h-.74c.439 3.503.74 7.047.74 10.667v53.333h21.334v-42.666z"/><glyph glyph-name="tv-2" unicode="" horiz-adv-x="256" d="M181.333 32H74.667C68.779 32 64 27.221 64 21.333s4.779-10.666 10.667-10.666h106.666c5.888 0 10.667 4.778 10.667 10.666S187.221 32 181.333 32zm64 213.333H10.667C4.779 245.333 0 240.555 0 234.667V64c0-5.888 4.779-10.667 10.667-10.667h234.666C251.221 53.333 256 58.112 256 64v170.667c0 5.888-4.779 10.666-10.667 10.666zM234.667 74.667H21.333V224h213.334V74.667z"/><glyph glyph-name="umbrella-13" unicode="" horiz-adv-x="256" d="M245.28 129.056c-5.621 56.65-50.603 100.17-106.613 105.11V256h-21.334v-21.835c-56.01-4.938-100.992-48.458-106.613-105.109l-1.163-11.723h236.896l-1.173 11.723zM192 53.333c-5.888 0-10.667-4.778-10.667-10.666 0-11.766-9.568-21.334-21.333-21.334s-21.333 9.568-21.333 21.334V96h-21.334V42.667C117.333 19.136 136.47 0 160 0s42.667 19.136 42.667 42.667c0 5.888-4.779 10.666-10.667 10.666z"/><glyph glyph-name="user-run" unicode="" horiz-adv-x="256" d="M170.667 224c0-17.673 14.327-32 32-32 17.673 0 32 14.327 32 32 0 17.673-14.327 32-32 32-17.673 0-32-14.327-32-32zm67.125-45.792l-18.5-18.5a10.68 10.68 0 0 0-14.209-.786L128.24 220.4c-12.745 10.203-31.063 9.188-42.615-2.36l-18.5-18.5c-4.167-4.166-4.167-10.916 0-15.083s10.917-4.166 15.083 0l18.5 18.5c3.844 3.86 9.943 4.183 14.209.787l29.116-23.295-34.241-34.242c-6.808-6.807-10.167-16.203-9.22-25.78s6.09-18.131 14.095-23.47l32.5-22L119.5 38.443c-3.557-4.698-2.635-11.386 2.057-14.943a10.604 10.604 0 0 1 6.433-2.167c3.229 0 6.416 1.459 8.51 4.224L164 61.854a21.387 21.387 0 0 1 4.417 16.604 21.382 21.382 0 0 1-9.25 14.47l-32.667 21.78a10.642 10.642 0 0 0-4.698 7.823 10.654 10.654 0 0 0 3.073 8.594l35.917 35.917 30.968-24.776a31.885 31.885 0 0 1 19.985-7.026 31.935 31.935 0 0 1 22.63 9.385l18.5 18.5c4.167 4.167 4.167 10.917 0 15.083s-10.917 4.167-15.083 0zM67.125 103.542l-64-64c-4.167-4.167-4.167-10.917 0-15.084 2.083-2.083 4.812-3.125 7.542-3.125s5.458 1.042 7.541 3.125l64 64c4.167 4.167 4.167 10.917 0 15.084s-10.916 4.166-15.083 0z"/><glyph glyph-name="vector" unicode="" horiz-adv-x="256" d="M99.68 177.397C54.581 164.95 21.333 123.67 21.333 74.667h21.334C42.667 121.717 80.949 160 128 160c-12.384 0-22.997 7.104-28.32 17.397zm56.64 0C150.997 167.104 140.384 160 128 160c47.05 0 85.333-38.283 85.333-85.333h21.334c0 49.002-33.248 90.282-78.347 102.73zM32 181.333h65.963C96.768 184.683 96 188.235 96 192s.768 7.317 1.963 10.667H32c-5.888 0-10.667-4.779-10.667-10.667S26.112 181.333 32 181.333zm192 0c5.888 0 10.667 4.779 10.667 10.667s-4.779 10.667-10.667 10.667h-65.963c1.195-3.35 1.963-6.902 1.963-10.667s-.768-7.317-1.963-10.667H224zM0 192c0-11.782 9.551-21.333 21.333-21.333 11.782 0 21.334 9.55 21.334 21.333 0 11.782-9.552 21.333-21.334 21.333S0 203.783 0 192zm0 21.333h42.667v-42.666H0v42.666zm213.333 0H256v-42.666h-42.667v42.666zm-85.333-64c-23.53 0-42.667 19.136-42.667 42.667S104.47 234.667 128 234.667 170.667 215.53 170.667 192 151.53 149.333 128 149.333zm0 64c-11.765 0-21.333-9.568-21.333-21.333s9.568-21.333 21.333-21.333 21.333 9.568 21.333 21.333-9.568 21.333-21.333 21.333zm-74.667-192H10.667C4.779 21.333 0 26.112 0 32v42.667c0 5.888 4.779 10.666 10.667 10.666h42.666C59.221 85.333 64 80.555 64 74.667V32c0-5.888-4.779-10.667-10.667-10.667zm192 0h-42.666C196.779 21.333 192 26.112 192 32v42.667c0 5.888 4.779 10.666 10.667 10.666h42.666c5.888 0 10.667-4.778 10.667-10.666V32c0-5.888-4.779-10.667-10.667-10.667z"/><glyph glyph-name="watch-time" unicode="" horiz-adv-x="256" d="M224 192c0 15.659-11.317 28.661-26.187 31.413l-6.133 24.512A10.659 10.659 0 0 1 181.333 256H74.667a10.659 10.659 0 0 1-10.347-8.075l-6.133-24.512C43.317 220.661 32 207.66 32 192V64c0-15.659 11.317-28.661 26.187-31.413l6.122-24.512A10.68 10.68 0 0 1 74.667 0h106.666c4.896 0 9.163 3.328 10.347 8.075l6.123 24.512C212.683 35.339 224 48.34 224 64v32h21.333v64H224v32zM202.667 64c0-5.877-4.79-10.667-10.667-10.667H64c-5.877 0-10.667 4.79-10.667 10.667v128c0 5.877 4.79 10.667 10.667 10.667h128c5.877 0 10.667-4.79 10.667-10.667V64zm-64 117.333h-21.334v-64h64v21.334h-42.666z"/><glyph glyph-name="world" unicode="" horiz-adv-x="256" d="M128 256C57.419 256 0 198.581 0 128S57.419 0 128 0s128 57.419 128 128-57.419 128-128 128zm0-234.667c-26.667 0-51.019 9.91-69.739 26.144.086.139.203.256.278.395 17.621 29.525 6.538 47.563-1.643 55.69-2.155 2.145-4.619 4.097-7.157 6.06-6.635 5.151-11.03 8.554-11.03 18.378 0 4.63 2.582 6.443 15.328 10.795 8.768 2.997 18.699 6.389 25.11 14.677 14.88 19.243-1.483 48.917-4.918 54.677-1.76 2.955-3.669 5.728-5.653 8.384 16.032 10.795 35.168 17.238 55.733 17.952 3.328-5.642 8.822-10.4 14.219-15.04 4.608-3.968 11.925-5.632 15.69-10.325 2.155-2.688 1.11-7.872 1.185-11.264.149-6.73 4.224-16.49 17.962-16.49.608 0 1.238.02 1.888.063 5.312.374 21.888 4.171 38.55 9.675 13.056-17.707 20.864-39.488 20.864-63.104 0-58.816-47.851-106.667-106.667-106.667zm37.483 139.702c-16.811 0-33.974-7.99-42.699-19.872-5.856-7.979-7.563-17.206-4.81-25.984 5.493-17.515 6.026-27.84 2.591-39.414-3.05-10.282-3.349-25.194 14.07-32.298 3.285-1.344 6.89-2.027 10.688-2.027 12.949 0 28.277 8.01 42.069 21.995 16.576 16.8 26.325 37.386 26.09 55.093-.32 23.83-21.407 42.507-48 42.507z"/><glyph glyph-name="zoom-split-in" unicode="" horiz-adv-x="256" d="M210.208 60.875c-4.17 4.17-10.912 4.17-15.083 0s-4.17-10.912 0-15.083l32-32c2.08-2.08 4.811-3.125 7.542-3.125s5.461 1.045 7.541 3.125a10.655 10.655 0 0 1 0 15.083l-32 32zM106.667 256C47.85 256 0 208.15 0 149.333S47.85 42.667 106.667 42.667s106.666 47.85 106.666 106.666S165.483 256 106.667 256zm42.666-117.333h-32v-32H96v32H64V160h32v32h21.333v-32h32v-21.333z"/><glyph glyph-name="collection" unicode="" horiz-adv-x="256" d="M22 224v-32H0v-20.932l10.75-.284 10.75-.284.275-15.75.276-15.75H0v-22H22.051l-.276-15.75L21.5 85.5l-10.75-.284L0 84.932V64h22V0h234v256H22v-32m213-96.005V20.99l-96.25.255-96.25.255-.27 21.25L41.96 64H64v20.932l-10.75.284-10.75.284-.275 15.75-.276 15.75H64v22H41.949l.276 15.75.275 15.75 10.75.284 10.75.284V192H42v20.833c0 11.459.3 21.134.667 21.5.366.367 43.791.667 96.5.667H235V127.995M96 128V85h106v86H96v-43m86 0v-21h-65v42h65v-21"/><glyph glyph-name="image" unicode="" horiz-adv-x="256" d="M0 128V11h256v234H0V128m235 43.441c0-41.785-.256-52.404-1.25-51.801-1.253.761-47.347 38.958-51.417 42.609l-2.167 1.944-31.704-37.097C131.024 106.693 116.35 90 115.853 90c-.497 0-12.131 9-25.853 20-13.722 11-25.425 20-26.006 20-.582 0-9.931-7.112-20.776-15.804S22.938 98.052 22.25 97.637c-.995-.601-1.25 12.221-1.25 62.804V224h214v-52.559M101.217 201.79c-6.862-1.017-11.733-3.601-16.883-8.957-6.127-6.372-8.571-11.802-9.09-20.191-.607-9.82 2.202-17.218 9.191-24.207 6.989-6.989 14.387-9.798 24.207-9.191 24.248 1.499 37.766 28.699 24.339 48.971-6.905 10.425-18.779 15.5-31.764 13.575m12.86-23.713c2.29-2.29 2.923-3.82 2.923-7.066 0-5.181-1.255-7.574-4.98-9.501-4.879-2.523-8.793-1.937-12.62 1.89-3.822 3.822-4.413 7.74-1.9 12.6 1.97 3.809 4.079 4.933 9.327 4.97 3.472.024 4.904-.547 7.25-2.893m95.413-65.93L235 90.794V32H21l.015 18.75.015 18.75 20.974 16.75C53.54 95.463 63.449 103 64.025 103c.576 0 8.793-6.207 18.261-13.792a8402.424 8402.424 0 0 1 26.829-21.412l9.616-7.619 31.697 36.974c17.433 20.336 32.114 36.833 32.625 36.662.51-.172 12.407-9.922 26.437-21.666"/><glyph glyph-name="shop" unicode="" horiz-adv-x="256" d="M34.245 209.497c-21.597-43.206-23.242-46.875-23.209-51.75.097-14.308 7.212-28.411 17.561-34.807L32 120.837V0h85v53h22V0h85V120.837l3.403 2.103c10.349 6.396 17.464 20.499 17.561 34.807.033 4.875-1.612 8.544-23.209 51.75L198.51 256H57.49l-23.245-46.503m170.662-13.31c18.262-36.564 19.343-39.041 18.657-42.75-1.119-6.039-3.591-10.482-6.984-12.551-4.329-2.64-12.794-2.535-17.243.215-3.535 2.185-7.337 8.33-7.337 11.859 0 1.921-.6 2.04-10.293 2.04h-10.292l-1.161-4.342c-.782-2.921-2.487-5.539-5.211-8-3.673-3.318-4.583-3.658-9.796-3.654-8.78.005-14.558 4.391-16.169 12.271l-.66 3.225h-20.836l-.66-3.225c-1.611-7.88-7.389-12.266-16.169-12.271-5.213-.004-6.123.336-9.796 3.654-2.724 2.461-4.429 5.079-5.211 8L84.585 155H74.293c-10.006 0-10.293-.063-10.298-2.25-.007-3.164-4.061-9.495-7.553-11.797-3.955-2.607-12.8-2.642-17.022-.067-3.371 2.055-6.234 7.194-7.149 12.83-.524 3.228 1.479 7.747 18.811 42.449L70.479 235h115.042l19.386-38.813m-126.59-70.573c7.607-5.701 13.913-7.763 23.633-7.729 7.85.027 13.757 1.942 20.746 6.727l5.197 3.558 4.709-3.24c7.203-4.956 13.682-7.041 21.879-7.041 9.431 0 15.677 2.269 25.724 9.343 1.392.981 2.127.824 4-.854 3.795-3.398 9.018-6.158 14.045-7.421l4.75-1.194V21h-43v54H96V21H53v96.763l4.669 1.175c4.932 1.242 12.342 5.165 14.369 7.607 1.645 1.982 2.576 1.844 6.279-.931"/><glyph glyph-name="ungroup" unicode="" horiz-adv-x="256" d="M11 160V75h64V11h170v170h-64v64H11v-85m149 0V96H32v128h128v-64m64-64V32H96v43h85v85h43V96"/><glyph glyph-name="world-2" unicode="" horiz-adv-x="256" d="M113.63 255.01c-27.786-3.51-53.839-15.744-73.488-34.51-53.223-50.83-52.969-135.199.558-185.533C58.266 18.449 79.155 7.785 104.5 2.394c10.985-2.336 36.015-2.336 47 .001 27.343 5.815 50.225 18.167 68.099 36.761C261.858 83.115 267.53 148.763 233.496 200c-6.417 9.66-23.944 27.243-33.269 33.375-14.745 9.696-31.674 16.71-48.475 20.085-9.572 1.923-28.936 2.71-38.122 1.55m-33.284-36.76c-13.895-19.343-23.433-45.842-25.916-72l-.688-7.25h-31.93l.711 5.25c3.455 25.517 19.689 52.765 41.045 68.889C68.734 217.04 83.793 226 85.182 226c.402 0-1.774-3.487-4.836-7.75M118 182.5V139H74.724l.69 6.75c2.151 21.042 9.557 41.874 20.885 58.75 4.182 6.23 18.862 21.5 20.669 21.5.694 0 1.032-14.267 1.032-43.5m29.869 35.75c12.412-12.326 21.073-26.89 26.908-45.25 2.971-9.348 6.223-25.642 6.223-31.176V139h-43v43.5c0 29.233.338 43.5 1.032 43.5.568 0 4.544-3.487 8.837-7.75m31.34 3.384c10.553-6.014 15.033-9.431 24.125-18.403 15.881-15.672 27.306-38.028 30.143-58.981l.711-5.25h-31.93l-.688 7.25c-2.483 26.158-12.021 52.657-25.916 72-3.062 4.263-5.238 7.75-4.836 7.75.402 0 4.178-1.965 8.391-4.366M54.43 109.75c2.483-26.158 12.021-52.657 25.916-72 3.062-4.262 5.286-7.75 4.943-7.75-1.319 0-14.068 7.411-19.789 11.503-7.71 5.515-19.216 17.229-24.947 25.398-8.741 12.46-16.135 30.852-18.03 44.849l-.711 5.25h31.93l.688-7.25M118 73.5c0-31.468-.31-43.5-1.121-43.5-1.835 0-16.213 15.028-20.57 21.5-5.982 8.886-11.68 20.784-15.086 31.5C78.252 92.348 75 108.642 75 114.176V117h43V73.5m62.597 37.25c-2.273-21.481-9.752-42.677-20.907-59.25-4.355-6.471-18.733-21.5-20.569-21.5C138.31 30 138 42.032 138 73.5V117h43.258l-.661-6.25m52.88 1c-1.972-14.568-10.088-34.089-19.378-46.611-5.523-7.445-16.393-18.474-22.914-23.248C186.51 38.467 172.006 30 170.818 30c-.402 0 1.663 3.337 4.589 7.415 14.125 19.686 23.671 46.08 26.163 72.335l.688 7.25h31.93l-.711-5.25"/><glyph glyph-name="ui-04" unicode="" horiz-adv-x="256" d="M60.5 255.324c-19.868-2.791-39.124-18.721-46.308-38.309-3.242-8.84-4.04-23.815-1.781-33.402 4.836-20.513 22.473-38.31 42.692-43.076 9.236-2.177 134.925-2.238 145.154-.07 20.363 4.315 38.416 22.29 43.332 43.146 1.184 5.026 1.48 9.589 1.096 16.887-.822 15.587-5.155 25.826-15.615 36.894-6.81 7.207-13.225 11.438-23.07 15.22l-7.5 2.88-67.5.126c-37.125.069-68.85-.064-70.5-.296m16.035-21.415c7.914-1.463 12.804-4.114 18.939-10.268 8.988-9.016 12.66-20.307 10.548-32.433-1.44-8.273-3.995-13.242-10.16-19.76-19.751-20.884-55.192-11.4-62.838 16.815-3.226 11.901 1.137 26.816 10.408 35.584 6.016 5.69 10.109 8.028 17.068 9.747 6.451 1.594 8.858 1.642 16.035.315M202 231.375c12.639-6.077 20.802-17.871 21.774-31.462.991-13.849-4.647-25.477-16.18-33.371-9.049-6.194-12.573-6.599-54.87-6.304l-37.633.262 3.282 5c12.49 19.034 12.549 44.524.146 63.337-1.936 2.936-3.519 5.551-3.519 5.812 0 .261 18.113.334 40.25.163l40.25-.312 6.5-3.125M59 116.326c-6.719-1.167-15.875-5.023-22.585-9.511-20.611-13.786-29.766-38.484-23.437-63.23 2.574-10.063 6.143-16.521 13.522-24.463 7.241-7.794 15.585-13.385 24.428-16.369C57.413.564 58.379.531 124.094.222 198.612-.129 199.271-.081 213 6.649c8.879 4.352 19.882 14.765 24.83 23.498 6.565 11.588 8.864 29.041 5.633 42.75-4.327 18.354-19.832 35.06-38.391 41.365-6.532 2.219-6.994 2.234-75.072 2.366-37.675.073-69.625-.063-71-.302m81.351-21.576c-.422-.688-2.083-3.203-3.691-5.59-11.461-17.015-11.057-44.481.917-62.275C139.46 24.088 141 21.619 141 21.4c0-1-74.276-.32-79.201.724C44.292 25.839 32.022 40.828 32.022 58.5c0 10.776 3.324 18.751 11.026 26.452 10.561 10.562 12.118 10.85 59.261 10.959 30.808.071 38.651-.169 38.042-1.161m56.195-.118c8.722-2.322 14.087-6.17 20.636-14.8 7.484-9.862 8.899-24.599 3.487-36.332-10.949-23.737-41.267-29.667-59.559-11.649-6.607 6.507-9.713 12.325-11.255 21.084-1.262 7.163.051 16 3.332 22.432 2.457 4.816 9.921 12.919 14.517 15.759 7.393 4.569 19.38 6.026 28.842 3.506"/></font>
</defs>
</svg>
